Saltar al contenido

di23rime

Usuario
  • Cuenta de contenidos

    208
  • Se unió

  • Última visita

3 Seguidores

Acerca de di23rime

  • Rango
    Un Distinto
  • Edad 31/10/1992

Información Personal

  • Género
    Mujer
  • Nacionalidad
    México
  • Ciudad de origen
    Monterrey
  • Ciudad actual
    Monterrey

Visitantes recientes al perfil

1.541 visitas al perfil
  1. se subieron los Capitulos 216 - 217 - 218 - 219 - 220
  2. La Sonrisa Se Ha Ido De Tus Ojos (1080p Latino) Título: ???? ??? ???? ? / Haneuleseo Naerineun Ileokkaeui Byeol Título en inglés: The Smile Has Left Your Eyes También conocido como: Hundred Million Stars From the Sky; One Hundred Million Stars Falling From the Sky Género: Melodrama, Romance, Misterio, Psicológico Episodios: 16 Cadena: tvN Banda sonora: The Smile Has Left Your Eyes OST Títulos relacionados: Sora Kara Furu Ichioku no Hoshi (Fuji TV, 2002) Tamaño Total: 8.64GB Sinopsis Kim Moo Young (Seo In Guk), a quien se llama "monstruo" es el primer asistente de una cervecería coreana que se convierte en sospechoso cuando el suicidio de una estudiante resulta ser un asesinato, llama la atención del detective Yoo Jin Gook (Park Sung Woong. A medida que el detective se adentra en el caso, Moo Young resulta más sospechoso, de manera que el detective se entera acerca de cómo él podría relacionarse con un doloroso recuerdo de su pasado. La vida de Kim Moo Young comienza a cambiar cuando conoce a la hermana del detective, una amable y cálida diseñadora de publicidad llamada Yoo Jin Kang (Jung So Min), que desea ser el refugio seguro de Moo Young. Ella tiene tantas cicatrices emocionales como él. Mientras Yoo Jin Gook intenta revelar la verdad detrás del caso, quiere mantener alejada a su hermana de Moo Young ¿Será realmente culpable Kim Moo Young? ¿Prevalecerá el amor o la justicia? General Format : Matroska Format version : Version 4 File size : 632 MiB Duration : 1 h 1 min Overall bit rate : 1 438 kb/s Frame rate : 24.000 FPS Encoded date : 2024-03-01 21:05:05 UTC Writing application : mkvmerge v51.0.0 ('I Wish') 64-bit Writing library : libebml v1.4.0 + libmatroska v1.6.2 / Lavf60.3.100 ARTIST : Seo In Guk;Jung So Min;Park Sung Woong;Seo Eun Soo;Lee Hongbin;Do Sang Woo;Lee Ji Min;Go Min Si;Han Sa Myung;Park Min Jung;Kim Seo Kyung;Jang Young Nam;Choi Byung Mo;Kwon Soo Hyun;Kim Jung Young;Lee Ji Ha EPISODE_ID : 1 SEASON_NUMBER : 1 SHOW : La sonrisa se ha ido de tus ojos Video ID : 1 Format : AVC Format/Info : Advanced Video Codec Format profile : High@L4 Format settings : CABAC / 4 Ref Frames Format settings, CABAC : Yes Format settings, Reference : 4 frames Codec ID : V_MPEG4/ISO/AVC Duration : 1 h 1 min Bit rate : 1 114 kb/s Width : 1 920 pixels Height : 1 080 pixels Display aspect ratio : 16:9 Frame rate mode : Constant Frame rate : 24.000 FPS Color space : YUV Chroma subsampling : 4:2:0 Bit depth : 8 bits Scan type : Progressive Bits/(Pixel*Frame) : 0.022 Stream size : 490 MiB (77%) Writing library : Vision-264-core V0.9.5.0 Encoding settings : CAE Default : Yes Forced : No VENDOR_ID : [/size] Audio #1 ID : 2 Format : AAC LC Format/Info : Advanced Audio Codec Low Complexity Codec ID : A_AAC-2 Duration : 1 h 1 min Bit rate : 128 kb/s Channel(s) : 2 channels Channel layout : L R Sampling rate : 44.1 kHz Frame rate : 43.066 FPS (1024 SPF) Compression mode : Lossy Stream size : 56.3 MiB (9%) Title : Latino Language : Spanish Default : Yes Forced : Yes Audio #2 ID : 3 Format : AAC LC Format/Info : Advanced Audio Codec Low Complexity Codec ID : A_AAC-2 Duration : 1 h 1 min Bit rate : 192 kb/s Channel(s) : 2 channels Channel layout : L R Sampling rate : 48.0 kHz Frame rate : 46.875 FPS (1024 SPF) Compression mode : Lossy Stream size : 84.4 MiB (13%) Title : ??? Language : Korean Default : No Forced : No VENDOR_ID : [/size] Text ID : 4 Format : UTF-8 Codec ID : S_TEXT/UTF8 Codec ID/Info : UTF-8 Plain Text Duration : 1 h 1 min Bit rate : 61 b/s Frame rate : 0.194 FPS Count of elements : 714 Stream size : 27.5 KiB (0%) Title : Español Writing library : Lavc60.3.100 srt Language : Spanish Default : No Forced : No
  3. El Acuerdo (Bargain) (1080p Latino) Título: ?? / Momgap Título en inglés: Bargain También conocido como: Ransom Género: Drama, Desastres, Suspenso Episodios: 6 Cadena: TVING Banda sonora: Bargain OST Título relacionado: Bargain (2015) Tamaño Total: 6.78GB Sinopsis Mientras No Hyung Soo y Park Joo Young se encuentran en un motel y negocian un precio, de repente ocurre un terremoto. Dentro del edificio derrumbado, luchan por sobrevivir. General Format : Matroska Format version : Version 4 File size : 1.17 GiB Duration : 37 min 36 s Overall bit rate : 4 456 kb/s Frame rate : 23.976 FPS Writing application : Lavf60.3.100 Writing library : Lavf60.3.100 Cover : Yes ErrorDetectionType : Per level 1 Attachments : cover.png DATE : 28/10/22 EPISODE_ID : 1 SEASON_NUMBER : 1 SHOW : Bargain Video ID : 1 Format : AVC Format/Info : Advanced Video Codec Format profile : High@L4 Format settings : CABAC / 4 Ref Frames Format settings, CABAC : Yes Format settings, Reference : 4 frames Codec ID : V_MPEG4/ISO/AVC Duration : 37 min 36 s Nominal bit rate : 4 500 kb/s Width : 1 920 pixels Height : 1 080 pixels Display aspect ratio : 16:9 Frame rate mode : Constant Frame rate : 23.976 (24000/1001) FPS Color space : YUV Chroma subsampling : 4:2:0 Bit depth : 8 bits Scan type : Progressive Bits/(Pixel*Frame) : 0.091 Writing library : x264 core 164 r3107 a8b68eb Encoding settings : cabac=1 / ref=4 / deblock=1:0:0 / analyse=0x3:0x113 / me=hex / subme=8 / psy=1 / psy_rd=1.00:0.00 / mixed_ref=1 / me_range=16 / chroma_me=1 / trellis=2 / 8x8dct=1 / cqm=0 / deadzone=21,11 / fast_pskip=1 / chroma_qp_offset=-2 / threads=24 / lookahead_threads=4 / sliced_threads=0 / nr=0 / decimate=1 / interlaced=0 / bluray_compat=0 / stitchable=1 / constrained_intra=0 / bframes=3 / b_pyramid=2 / b_adapt=1 / b_bias=0 / direct=3 / weightb=1 / open_gop=0 / weightp=2 / keyint=48 / keyint_min=4 / scenecut=0 / intra_refresh=0 / rc_lookahead=48 / rc=2pass / mbtree=1 / bitrate=4500 / ratetol=1.0 / qcomp=0.60 / qpmin=0 / qpmax=69 / qpstep=4 / cplxblur=20.0 / qblur=0.5 / vbv_maxrate=5400 / vbv_bufsize=4500 / nal_hrd=none / filler=0 / ip_ratio=1.40 / aq=1:1.00 Language : English Default : Yes Forced : No Color range : Limited Color primaries : BT.709 Transfer characteristics : BT.709 Matrix coefficients : BT.709 VENDOR_ID : [/size] Audio ID : 2 Format : AAC LC Format/Info : Advanced Audio Codec Low Complexity Codec ID : A_AAC-2 Duration : 37 min 36 s Channel(s) : 2 channels Channel layout : L R Sampling rate : 48.0 kHz Frame rate : 46.875 FPS (1024 SPF) Compression mode : Lossy Delay relative to video : -21 ms Title : Español Language : Spanish Default : Yes Forced : No VENDOR_ID : [/size] Text ID : 3 Format : UTF-8 Codec ID : S_TEXT/UTF8 Codec ID/Info : UTF-8 Plain Text Duration : 35 min 38 s Title : Español Writing library : Lavc60.3.100 srt Language : Spanish Default : Yes Forced : No
  4. Abogado Sin Ley (Lawless Lawyer)(1080p SUB) Título: ?? ??? / Mubeob Byeonhosa Título en inglés: Lawless Lawyer También conocido como: Lawless Attorney Genero: Drama, Legal, Suspenso, Acción, Romance Episodios: 16 Cadena: tvN Banda sonora: Lawless Lawyer OST Tamaño Total: 10.3GB Sinopsis Bong Sang Pil es un ex gángster, pero ahora trabaja como abogado. Él también tiene una de las mejores tasas de ganancia como abogado. Bong Sang Pil aprovechará las lagunas en la ley, para presentarse ante la corte por vengar a su madre, oponiéndose al poder absoluto. General Format : Matroska Format version : Version 4 File size : 691 MiB Duration : 1 h 4 min Overall bit rate : 1 503 kb/s Frame rate : 24.000 FPS Writing application : Lavf60.3.100 Writing library : Lavf60.3.100 Cover : Yes ErrorDetectionType : Per level 1 Attachments : cover.png ARTIST : Lee Joon Gi;Seo Ye Ji;Lee Hye Young (1962);Choi Min Soo;Kim Byung Hee;Lim Ki Hong;Seo Ye Hwa;Yeom Hye Ran;Cha Jung Won;Shin Eun Jung;Ahn Nae Sang;Lee Han Wi;Lee Dae Yeon;Choi Dae Hoon;Park Ho San;Kim Kwang Gyu;Jun Jin Gi;Baek Joo Hee;Son Min Ji;Jeon Bae Soo EPISODE_ID : 1 SEASON_NUMBER : 1 SHOW : Lawless Lawyer Video ID : 1 Format : AVC Format/Info : Advanced Video Codec Format profile : High@L4 Format settings : CABAC / 4 Ref Frames Format settings, CABAC : Yes Format settings, Reference : 4 frames Codec ID : V_MPEG4/ISO/AVC Duration : 1 h 4 min Width : 1 920 pixels Height : 1 080 pixels Display aspect ratio : 16:9 Frame rate mode : Constant Frame rate : 24.000 FPS Color space : YUV Chroma subsampling : 4:2:0 Bit depth : 8 bits Scan type : Progressive Writing library : Vision-264-core V0.9.5.0 Encoding settings : CAE Default : Yes Forced : No VENDOR_ID : [/size] Audio ID : 2 Format : AAC LC Format/Info : Advanced Audio Codec Low Complexity Codec ID : A_AAC-2 Duration : 1 h 4 min Channel(s) : 2 channels Channel layout : L R Sampling rate : 48.0 kHz Frame rate : 46.875 FPS (1024 SPF) Compression mode : Lossy Title : ??? Language : Korean Default : Yes Forced : No VENDOR_ID : [/size] Text ID : 3 Format : UTF-8 Codec ID : S_TEXT/UTF8 Codec ID/Info : UTF-8 Plain Text Duration : 1 h 4 min Title : Español Writing library : Lavc60.3.100 srt Language : Spanish Default : Yes Forced : No
  5. Negocio letal (A Shop for Killers) (720p Subtitulada) Título: ???? ??? / Salinjaui Shoppingmall Título en inglés: A Shop for Killers También conocido como: The Killer's Shopping Mall Género: Drama, Acción Episodios: 8 Cadena: Disney+ Periodo de emisión: 17-Enero-2024 al 07-Febrero-2024 Horario: Miércoles Banda sonora: A Shop for Killers OST Tamaño Total: 10.4GB Sinopsis Cuando Jung Ji An era pequeña, su madre fue asesinada por su padre y su padre se quitó la vida el día del funeral de su abuela. Jung Ji An de repente se quedó sola. Su tío, Jung Jin Man, la acogió y vivieron juntos. Mientras criaba a Jung Ji An, Jung Jin Man dirigía un misterioso centro comercial. Jung Ji An finalmente se matriculó en una universidad y dejó la casa de su tío. Empezó a vivir sola. Un día, Jung Ji An se entera de que su tío ha fallecido repentinamente. Regresa a la casa de su tío, donde vivía con él. Ella se entera de la verdadera identidad del centro comercial que dirigía Jung Jin Man. General Format : Matroska Format version : Version 4 File size : 1.10 GiB Duration : 49 min 38 s Overall bit rate mode : Variable Overall bit rate : 3 159 kb/s Frame rate : 23.976 FPS Description : Jian, que es atacada en su casa, recuerda lo que su tío le enseñó y comienza a esquivar las balas. Writing application : Lavf60.3.100 Writing library : Lavf60.3.100 ErrorDetectionType : Per level 1 ARTIST : Lee Dongwook,Kim Hyejun,Seo Hyunwoo,Jo Hansun,Park Jibin,Geum Hannah DATE : 2024 EPISODE_ID : 1 SEASON_NUMBER : 1 SHOW : Negocio letal Video ID : 1 Format : AVC Format/Info : Advanced Video Codec Format profile : [email protected] Format settings : CABAC / 4 Ref Frames Format settings, CABAC : Yes Format settings, Reference : 4 frames Codec ID : V_MPEG4/ISO/AVC Duration : 49 min 38 s Bit rate mode : Variable Bit rate : 2 840 kb/s Maximum bit rate : 6 375 kb/s Width : 1 280 pixels Height : 720 pixels Display aspect ratio : 16:9 Frame rate mode : Constant Frame rate : 23.976 (24000/1001) FPS Color space : YUV Chroma subsampling : 4:2:0 Bit depth : 8 bits Scan type : Progressive Bits/(Pixel*Frame) : 0.129 Time code of first frame : 00:00:00;00 Stream size : 1 008 MiB (90%) Writing library : AVC Coding Default : Yes Forced : No Color range : Limited Color primaries : BT.709 Transfer characteristics : BT.709 Matrix coefficients : BT.709 VENDOR_ID : [/size] Audio ID : 2 Format : E-AC-3 Format/Info : Enhanced AC-3 Commercial name : Dolby Digital Plus Codec ID : A_EAC3 Duration : 49 min 38 s Bit rate mode : Constant Bit rate : 256 kb/s Channel(s) : 6 channels Channel layout : L R C LFE Ls Rs Sampling rate : 48.0 kHz Frame rate : 31.250 FPS (1536 SPF) Bit depth : 32 bits Compression mode : Lossy Stream size : 90.9 MiB (8%) Title : Korean / BAMTech audio Language : Korean Service kind : Complete Main Default : Yes Forced : No VENDOR_ID : [/size] Text ID : 3 Format : UTF-8 Codec ID : S_TEXT/UTF8 Codec ID/Info : UTF-8 Plain Text Duration : 49 min 37 s Title : Español (Latinoamericano) Writing library : Lavc60.3.100 srt Language : Spanish Default : Yes Forced : No
  6. se subieron los Capitulos 211 - 212 - 213 - 214 - 215
  7. los estoy resubiendo es muy lento para subir gracas por abisar
  8. Moving (720p Latino) Título: ?? / Mubing Título en inglés: Moving Género: Misterio, Fantasía, Acción, Suspenso Episodios: 20 Periodo de emisión: 09-Agosto-2023 al 20-Septiembre-2023 Horario: Miércoles Banda sonora: Moving OST Tamaño Total: 20.1GB Sinopsis Kim Bong Seok, Jang Hee Soo y Lee Gang Hoon asisten a la misma escuela secundaria. Parecen estudiantes normales, pero tienen habilidades especiales que heredaron de sus padres. Kim Bong Seok tiene la capacidad de volar, mientras que Jang Hee Soo tiene excelentes habilidades atléticas y es capaz de recuperarse rápidamente de lesiones, como recibir un disparo o un apuñalamiento. Lee Gang Hoon tiene un poder y una velocidad asombrosos. Estos tres estudiantes intentan ocultar sus habilidades especiales a otras personas, mientras sus padres luchan por protegerlos de ser utilizados por otras personas. General Format : Matroska Format version : Version 4 File size : 947 MiB Duration : 40 min 50 s Overall bit rate mode : Variable Overall bit rate : 3 241 kb/s Frame rate : 23.976 FPS Description : El estudiante de secundaria Bongseok esconde un secreto. El primer día de clase, se pone feliz cuando ve que la chica que conoció en el autobús fue transferida a su clase. Mientras tanto, Frank se disfraza de entregador, y comienzan a suceder accidentes misteriosos en el centro de Seúl. Writing application : Lavf60.3.100 Writing library : Lavf60.3.100 ErrorDetectionType : Per level 1 ARTIST : Ryu Seungryong,Han Hyojoo,Zo Insung,Lee Jungha,Go Younjung DATE : 2023 EPISODE_ID : 1 SEASON_NUMBER : 1 SHOW : Moving Video ID : 1 Format : AVC Format/Info : Advanced Video Codec Format profile : [email protected] Format settings : CABAC / 4 Ref Frames Format settings, CABAC : Yes Format settings, Reference : 4 frames Codec ID : V_MPEG4/ISO/AVC Duration : 40 min 50 s Bit rate mode : Variable Bit rate : 2 921 kb/s Maximum bit rate : 6 375 kb/s Width : 1 280 pixels Height : 720 pixels Display aspect ratio : 16:9 Frame rate mode : Constant Frame rate : 23.976 (24000/1001) FPS Color space : YUV Chroma subsampling : 4:2:0 Bit depth : 8 bits Scan type : Progressive Bits/(Pixel*Frame) : 0.132 Time code of first frame : 00:00:00;00 Stream size : 853 MiB (90%) Writing library : AVC Coding Default : Yes Forced : No Color range : Limited Color primaries : BT.709 Transfer characteristics : BT.709 Matrix coefficients : BT.709 VENDOR_ID : [/size] Audio ID : 2 Format : E-AC-3 Format/Info : Enhanced AC-3 Commercial name : Dolby Digital Plus Codec ID : A_EAC3 Duration : 40 min 50 s Bit rate mode : Constant Bit rate : 256 kb/s Channel(s) : 6 channels Channel layout : L R C LFE Ls Rs Sampling rate : 48.0 kHz Frame rate : 31.250 FPS (1536 SPF) Bit depth : 32 bits Compression mode : Lossy Stream size : 74.8 MiB (8%) Title : Español (Latinoamericano) / BAMTech audio Language : Spanish Service kind : Complete Main Default : Yes Forced : No VENDOR_ID : [/size] Text ID : 3 Format : UTF-8 Codec ID : S_TEXT/UTF8 Codec ID/Info : UTF-8 Plain Text Duration : 40 min 48 s Title : es-419--forced-- Writing library : Lavc60.3.100 srt Language : Spanish Default : No Forced : No
  9. Adamas Diamante Asesino (720p Latino) Título: ???? / adamaseu Título en inglés: Adamas Género: Drama Episodios: 16 Cadena: tvN Periodo de emisión: 27-Julio-2022 al 15-Septiembre-2022 Horario: Miércoles y Jueves 22:30 Banda sonora: Adamas OST Tamaño Total: 24.8GB Sinopsis Ha Woo Shin y Song Soo Hyun son hermanos gemelos. Ha Woo Shin es un novelista de misterio de gran éxito de ventas y Song Soo Hyun es fiscal en la Oficina del Fiscal del Distrito Central. Hace 22 años, cuando eran niños, mataron a su padrastro. Ahora, descubren que su padre biológico es la persona que mató a su padrastro y recibió la sentencia de muerte. Ha Woo Shin y Song Soo Hyun pronto descubren que su padre biológico fue incriminado por el asesinato de su padrastro y persiguen la verdad. En el proceso, se encuentran con Eun Hye Soo y Kim Seo Hee . Eun Hye Soo está casada con el hijo mayor del Grupo Haesong y ayuda en secreto a Ha Woo Shin. Kim Seo Hee es reportera de noticias locales de TNN, es una persona justa y entusiasta con su trabajo. Tiene un secreto relacionado con los hermanos gemelos Ha Woo Shin y Song Soo Hyun. General Format : Matroska Format version : Version 4 File size : 1.80 GiB Duration : 1 h 17 min Overall bit rate mode : Variable Overall bit rate : 3 342 kb/s Frame rate : 23.976 FPS Description : Woosin busca la Adamas para revelar la verdad sobre la muerte de su padre. Entra en la mansión del presidente del Grupo Haesong, Kwon Jaegyu, y finge ser el escritor fantasma de sus memorias. Suhyeon revisa el expediente del caso que Seohui le entrega y comienza a cuestionar la muerte de su padre. Writing application : Lavf60.3.100 Writing library : Lavf60.3.100 ErrorDetectionType : Per level 1 ARTIST : Ji Sung,Seo Jihye,Lee Sookyung,Heo Sungtae,Oh Daehwan,Hwang Jungmin DATE : 2022 EPISODE_ID : 1 SEASON_NUMBER : 1 SHOW : Adamas: Diamante asesino Video ID : 1 Format : AVC Format/Info : Advanced Video Codec Format profile : [email protected] Format settings : CABAC / 4 Ref Frames Format settings, CABAC : Yes Format settings, Reference : 4 frames Codec ID : V_MPEG4/ISO/AVC Duration : 1 h 17 min Bit rate mode : Variable Maximum bit rate : 6 375 kb/s Width : 1 280 pixels Height : 720 pixels Display aspect ratio : 16:9 Frame rate mode : Constant Frame rate : 23.976 (24000/1001) FPS Color space : YUV Chroma subsampling : 4:2:0 Bit depth : 8 bits Scan type : Progressive Time code of first frame : 00:00:00;00 Writing library : AVC Coding Default : Yes Forced : No Color range : Limited Color primaries : BT.709 Transfer characteristics : BT.709 Matrix coefficients : BT.709 VENDOR_ID : [/size] Audio ID : 2 Format : AAC LC Format/Info : Advanced Audio Codec Low Complexity Codec ID : A_AAC-2 Duration : 1 h 17 min Channel(s) : 2 channels Channel layout : L R Sampling rate : 48.0 kHz Frame rate : 46.875 FPS (1024 SPF) Compression mode : Lossy Title : Español (Latinoamericano) / BAMTech audio Language : Spanish Default : Yes Forced : No VENDOR_ID : [/size] Text ID : 3 Format : UTF-8 Codec ID : S_TEXT/UTF8 Codec ID/Info : UTF-8 Plain Text Duration : 1 h 12 min Title : es-419--forced-- Writing library : Lavc60.3.100 srt Language : Spanish Default : No Forced : No
  10. Gannibal (720p Latino) Título: ????? Título (romaji): Gannibaru También conocida como: Gannibal Género: Misterio, Suspenso, Terror, Psicológico Episodios: 07 Cadena: Disney+ Tamaño Total: 8.21GB Sinopsis Tras causar un incidente, y con la esperanza de que la familia pase página del mismo, el agente de policía Daigo Agawa se muda con su familia a Kuge, un pueblo de campo en el que su anterior policía había desaparecido. Este pueblo subsiste gracias a la silvicultura y sus habitantes se ganan el pan con la leña del ciprés. La familia Goto está a cargo del trabajo y lidera gran parte del pueblo. Un día, encuentran el cuerpo de una señora en la montaña. Según los Goto, la atacó un oso, pero Daigo descubre en el brazo de la señora una mordedura de humano. Daigo empieza a sospechar que algo va mal en el pueblo... General Format : Matroska Format version : Version 4 File size : 1.22 GiB Duration : 49 min 27 s Overall bit rate mode : Variable Overall bit rate : 3 523 kb/s Tagged date : 2024-01-31 00:45:33.619 Writing application : Lavf60.3.100 Writing library : Lavf60.3.100 DATE : 2022 EPISODE_ID : 1 SEASON_NUMBER : 1 SHOW : Canibal Video ID : 1 Format : AVC Format/Info : Advanced Video Codec Format profile : [email protected] Format settings : CABAC / 4 Ref Frames Format settings, CABAC : Yes Format settings, Reference : 4 frames Codec ID : V_MPEG4/ISO/AVC Duration : 49 min 27 s Bit rate mode : Variable Maximum bit rate : 6 375 kb/s Width : 1 280 pixels Height : 720 pixels Display aspect ratio : 16:9 Frame rate mode : Constant Frame rate : 24.000 FPS Color space : YUV Chroma subsampling : 4:2:0 Bit depth : 8 bits Scan type : Progressive Writing library : AVC Coding Default : Yes Forced : No Color range : Limited Color primaries : BT.709 Transfer characteristics : BT.709 Matrix coefficients : BT.709 VENDOR_ID : [/size] Audio ID : 2 Format : AAC LC Format/Info : Advanced Audio Codec Low Complexity Codec ID : A_AAC-2 Duration : 49 min 27 s Channel(s) : 2 channels Channel layout : L R Sampling rate : 48.0 kHz Frame rate : 46.875 FPS (1024 SPF) Compression mode : Lossy Title : Español (Latinoamericano) / BAMTech audio Language : Spanish Default : Yes Forced : No VENDOR_ID : [/size] Text ID : 3 Format : UTF-8 Codec ID : S_TEXT/UTF8 Codec ID/Info : UTF-8 Plain Text Duration : 32 min 26 s Title : es-419--forced-- Writing library : Lavc60.3.100 srt Language : Spanish Default : No Forced : No
  11. La Luna Abrazando El Sol (720p Latino) Título: ?? ?? ? / Haeleul Pumeun Dal Título en inglés: The Moon That Embraces the Sun Anteriormente conocido como: The Sun and the Moon Género: Romance, Fantasía, Histórico, Drama Episodios: 20 Cadena: MBC Banda sonora: The Moon That Embraces the Sun OST Tamaño Total:25.6GB Sinopsis La historia de un amor prohibido entre Lee Hwon, rey de la dinastía Joseon (1392-1910), y Wol, una mujer chamán (estrato social más bajo de la época). Sin embargo, Wol es en realidad Heo Yeon Woo, una noble que fue la prometida de Lee Hwon cuando éstos eran adolescentes. Pero, debido a intrigas de palacio e intereses privados, ellos no llegaron a casarse y todos la creyeron muerta. Durante el "incidente" ella pierde la memoria y, 8 años después, cuando se vuelven a encontrar ella no lo reconoce, mientras que él piensa que sólo es alguien parecida a su esposa y su primer amor pero llegó una señora que arruina su futuro al darle a la esposa de lee hwon una comida que tiene una sustancia que te haría olvidar tus pasados 8 años de tu vida y con eso olvidar a tu esposo y toda tu vida en el palacio pero después de esos 8 años se volvieron a encontrar lee hwon y heo Yeon wo no se logran reconocer ¿Podrá Heo Yeon Woo y lee hwon recuperar su amor y su legítimo puesto en el palacio? ¿Podrán éstas dos almas gemelas volver a estar juntas o están destinadas a un amor imposible y un futuro separados para el resto de sus vidas La historia de un amor prohibido entre Lee Hwon, rey de la dinastía Joseon (1392-1910), y Wol, una mujer chamán (estrato social más bajo de la época). Sin embargo, Wol es en realidad Heo Yeon Woo, una noble que fue la prometida de Lee Hwon cuando éstos eran adolescentes. Pero, debido a intrigas de palacio e intereses privados, ellos no llegaron a casarse y todos la creyeron muerta. Durante el "incidente" ella pierde la memoria y, 8 años después, cuando se vuelven a encontrar ella no lo reconoce, mientras que él piensa que sólo es alguien parecida a su esposa y su primer amor pero llegó una señora que arruina su futuro al darle a la esposa de lee hwon una comida que tiene una sustancia que te haría olvidar tus pasados 8 años de tu vida y con eso olvidar a tu esposo y toda tu vida en el palacio pero después de esos 8 años se volvieron a encontrar lee hwon y heo Yeon wo no se logran reconocer ¿Podrá Heo Yeon Woo y lee hwon recuperar su amor y su legítimo puesto en el palacio? ¿Podrán éstas dos almas gemelas volver a estar juntas o están destinadas a un amor imposible y un futuro separados para el resto de sus vidas. General Format : MPEG-4 Format profile : Base Media Codec ID : isom (isom/iso2/avc1/mp41) File size : 1.53 GiB Duration : 1 h 12 min Overall bit rate mode : Variable Overall bit rate : 3 021 kb/s Writing application : Lavf58.76.100 Video ID : 1 Format : AVC Format/Info : Advanced Video Codec Format profile : [email protected] Format settings : CABAC / 3 Ref Frames Format settings, CABAC : Yes Format settings, Reference : 3 frames Format settings, GOP : M=1, N=90 Codec ID : avc1 Codec ID/Info : Advanced Video Coding Duration : 1 h 12 min Bit rate mode : Variable Bit rate : 2 751 kb/s Maximum bit rate : 8 300 kb/s Width : 1 280 pixels Height : 720 pixels Display aspect ratio : 16:9 Frame rate : 29.970 (29970/1000) FPS Color space : YUV Chroma subsampling : 4:2:0 Bit depth : 8 bits Scan type : Progressive Bits/(Pixel*Frame) : 0.100 Stream size : 1.39 GiB (91%) Tagged date : UTC 2023-10-24 02:35:31 Codec configuration box : avcC Audio ID : 2 Format : AAC LC Format/Info : Advanced Audio Codec Low Complexity Codec ID : mp4a-40-2 Duration : 1 h 12 min Bit rate mode : Constant Bit rate : 265 kb/s Channel(s) : 2 channels Channel layout : L R Sampling rate : 48.0 kHz Frame rate : 46.875 FPS (1024 SPF) Compression mode : Lossy Stream size : 136 MiB (9%) Default : Yes Alternate group : 1 Tagged date : UTC 2023-10-24 02:35:31
  12. se subieron los Capitulos 206 - 207 - 208 - 209 - 210
  13. Mátame, Saname (1080p Latino) Título: ??, ?? / Kilmi, Hilmi Titulo en ingles: Kill Me, Heal Me Género: Comedia, Romance, Medicina, Psicológico Episodios: 20 Cadena: MBC Banda Sonora Original: Kill Me, Heal Me OST Títulos relacionados: A Seven Faced Man (Tencent TV, 2017-2018) Tamaño Total: 37.2GB Sinopsis Cha Do Hyun sufre de trastorno de personalidad múltiple después de pasar por numerosos traumas a lo largo de su vida. Motivado por su deseo de llevar una vida normal, buscará la ayuda de una residente de primer año en psiquiatría llamada Oh Ri Jin. Las "siete personas" a quienes él creó en su mente, como diferentes métodos de escape de su turbia realidad, comenzarán una batalla para determinar quién tendrá el control de su vida. Oh Ri On es el hermano gemelo de Oh Ri Jin. Es un escritor extremadamente famoso que se oculta bajo el seudónimo de "Omega", del que nadie conoce su apariencia salvo su familia y su editor. Para quiénes le conocen fuera de su familia, es un desempleado sin preocupaciones, pero en su interior guarda varios secretos; secretos que incluye en sus libros para poder tener la excusa de investigarlos, y que de alguna manera involucran a Cha Do Hyun, su familia, y cierto incidente del pasado. General Format : Matroska Format version : Version 4 File size : 1.87 GiB Duration : 1 h 2 min Overall bit rate : 4 276 kb/s Writing application : Lavf60.3.100 Writing library : Lavf60.3.100 ErrorDetectionType : Per level 1 Video ID : 1 Format : AVC Format/Info : Advanced Video Codec Format profile : High@L4 Format settings : CABAC / 1 Ref Frames Format settings, CABAC : Yes Format settings, Reference : 1 frame Format settings, GOP : M=1, N=60 Codec ID : V_MPEG4/ISO/AVC Duration : 1 h 2 min Width : 1 920 pixels Height : 1 080 pixels Display aspect ratio : 16:9 Frame rate mode : Constant Frame rate : 29.970 (30000/1001) FPS Color space : YUV Chroma subsampling : 4:2:0 Bit depth : 8 bits Scan type : Progressive Title : Anvato eDASH 2.1 Default : Yes Forced : No VENDOR_ID : [/size] Audio ID : 2 Format : AAC LC Format/Info : Advanced Audio Codec Low Complexity Codec ID : A_AAC-2 Duration : 1 h 2 min Channel(s) : 2 channels Channel layout : L R Sampling rate : 44.1 kHz Frame rate : 43.066 FPS (1024 SPF) Compression mode : Lossy Title : Anvato eDASH 2.1 Language : Spanish Default : Yes Forced : No VENDOR_ID : [/size]
  14. Mi Adorable Demonio (720p Latino) Cantidad de episodios: 16 Último episodio: 20 de enero de 2024 Primer episodio: 24 de noviembre de 2023 (Corea del Sur) Desarrollado por: Lee Kwang-soon Dirigido por: Kim Jang-han; Kwon Da-som Duración: 70 minutos aprox Tamaño Total: 12GB "Mi adorable demonio", conocida en coreano como "?? ??" (Mai demon) o "My Demon" en inglés, es una serie de televisión surcoreana del año 2023. Basado en el webtoon del mismo nombre creado por CHOI A-IL, quien se encargó de la historia, y fue ilustrado por Conyang. La dirección de la serie estuvo a cargo de Kim Jang-han y Kwon Da-som, y cuenta con la destacada actuación de Kim Yoo-jung, Song Kang, Lee Sang-yi y Kim Hae Sook. La emisión original tuvo lugar por el canal SBS desde el 27 de noviembre de 2023 hasta el 20 de enero de 2024. Además, la serie fue distribuida simultáneamente en algunos territorios seleccionados a través de Netflix. Sinopsis Do Do Hee es la sucesora y heredera próxima del Grupo Mirae, ella es arrogante, desconfiada y cínica en lo que respecta el tema del amor y del romance. Por azares del destino, conoce a Jung Gu Won, quien se presenta como un productor de entretenimiento folklórico tradicional coreano, pero en realidad es un demonio de 200 años que desprecia a los humanos y disfruta jugando con ellos, haciendo tratos para finalmente llevarse sus almas. Sin embargo, debido a una serie de eventos inesperados, Jung Gu Won pierde sus poderes al intentar cerrar un contrato con Do Do Hee para protegerla, transfiriéndole involuntariamente todos sus poderes a ella. Ahora, para evitar su extinción inminente, él debe procurar cuidar y proteger a Do Do Hee, con la cual termina contrayendo matrimonio. Juntos, enfrentarán diversos enemigos y peligros. ¿Podrán aprender a confiar y enamorarse verdaderamente el uno del otro para sobrevivir? General Format : Matroska Format version : Version 4 File size : 1.00 GiB Duration : 1 h 9 min Overall bit rate : 2 077 kb/s Encoded date : UTC 2023-12-29 00:31:12 Writing application : mkvmerge v47.0.0 ('Black Flag') 64-bit Writing library : libebml v1.3.10 + libmatroska v1.5.2 Video ID : 1 Format : AVC Format/Info : Advanced Video Codec Format profile : High@L4 Format settings : CABAC / 4 Ref Frames Format settings, CABAC : Yes Format settings, Reference : 4 frames Codec ID : V_MPEG4/ISO/AVC Duration : 1 h 9 min Bit rate : 1 818 kb/s Width : 1 920 pixels Height : 960 pixels Display aspect ratio : 2.000 Frame rate mode : Constant Frame rate : 23.976 (24000/1001) FPS Color space : YUV Chroma subsampling : 4:2:0 Bit depth : 8 bits Scan type : Progressive Bits/(Pixel*Frame) : 0.041 Stream size : 898 MiB (88%) Writing library : x264 core 164 r3065 ae03d92 Encoding settings : cabac=1 / ref=4 / deblock=1:0:0 / analyse=0x3:0x113 / me=hex / subme=8 / psy=1 / psy_rd=1.00:0.00 / mixed_ref=1 / me_range=16 / chroma_me=1 / trellis=2 / 8x8dct=1 / cqm=0 / deadzone=21,11 / fast_pskip=1 / chroma_qp_offset=-2 / threads=30 / lookahead_threads=5 / sliced_threads=0 / nr=0 / decimate=1 / interlaced=0 / bluray_compat=0 / constrained_intra=0 / bframes=5 / b_pyramid=2 / b_adapt=1 / b_bias=0 / direct=3 / weightb=1 / open_gop=0 / weightp=2 / keyint=240 / keyint_min=24 / scenecut=40 / intra_refresh=0 / rc_lookahead=50 / rc=crf / mbtree=1 / crf=23.0 / qcomp=0.60 / qpmin=0 / qpmax=69 / qpstep=4 / vbv_maxrate=25000 / vbv_bufsize=31250 / crf_max=0.0 / nal_hrd=none / filler=0 / ip_ratio=1.40 / aq=1:1.00 Default : Yes Forced : No Color range : Limited Color primaries : BT.709 Transfer characteristics : BT.709 Matrix coefficients : BT.709 Audio #1 ID : 2 Format : E-AC-3 Format/Info : Enhanced AC-3 Commercial name : Dolby Digital Plus Codec ID : A_EAC3 Duration : 1 h 9 min Bit rate mode : Constant Bit rate : 128 kb/s Channel(s) : 2 channels Channel layout : L R Sampling rate : 48.0 kHz Frame rate : 31.250 FPS (1536 SPF) Compression mode : Lossy Stream size : 63.2 MiB (6%) Language : Spanish Service kind : Complete Main Default : Yes Forced : No Audio #2 ID : 3 Format : E-AC-3 Format/Info : Enhanced AC-3 Commercial name : Dolby Digital Plus Codec ID : A_EAC3 Duration : 1 h 9 min Bit rate mode : Constant Bit rate : 128 kb/s Channel(s) : 2 channels Channel layout : L R Sampling rate : 48.0 kHz Frame rate : 31.250 FPS (1536 SPF) Compression mode : Lossy Stream size : 63.2 MiB (6%) Language : Korean Service kind : Complete Main Default : No Forced : No Text #1 ID : 4 Format : UTF-8 Codec ID : S_TEXT/UTF8 Codec ID/Info : UTF-8 Plain Text Duration : 1 h 8 min Bit rate : 53 b/s Frame rate : 0.219 FPS Count of elements : 894 Stream size : 26.8 KiB (0%) Language : Spanish Default : Yes Forced : No Text #2 ID : 5 Format : UTF-8 Codec ID : S_TEXT/UTF8 Codec ID/Info : UTF-8 Plain Text Duration : 1 h 7 min Bit rate : 55 b/s Frame rate : 0.220 FPS Count of elements : 894 Stream size : 27.3 KiB (0%) Language : English Default : No Forced : No Text #3 ID : 6 Format : UTF-8 Codec ID : S_TEXT/UTF8 Codec ID/Info : UTF-8 Plain Text Duration : 1 h 7 min Bit rate : 2 b/s Frame rate : 0.013 FPS Count of elements : 51 Stream size : 1.44 KiB (0%) Language : Spanish Default : No Forced : No
×
×
  • Crear nuevo...